社区应用 最新帖子 精华区 社区服务 会员列表 统计排行
主题 : [MP4/1.7G] 鋼鐵俠3(英語中字) Iron Man 3
级别: 贵宾
显示用户信息 
0  发表于: 2013-05-26   

[MP4/1.7G] 鋼鐵俠3(英語中字) Iron Man 3

[原創SEED] [MP4/1.7G] 鋼鐵俠3(英語中字) Iron Man 3 (y|dtc1{r  
0mN^6}  
X6`U2kp.p  
c!,j~h-IS{  
导演: 沙恩·布莱克 {m_%%A[i  
编剧: 沙恩·布莱克 / 德鲁·皮尔斯 / 斯坦·李 / 唐·赫克 / 拉里·利伯 / 杰克·科比 IDtn=V  
主演: 小罗伯特·唐尼 / 盖·皮尔斯 / 格温妮斯·帕特洛 / 本·金斯利 / 唐·钱德尔 / 保罗·贝坦尼 / 丽贝卡·豪尔 / 乔恩·费儒 / 威廉姆·赛德勒 / 詹姆斯·戴尔 / 伊芳·齐玛 / 泰·辛普金斯 / 阿什利·汉弥尔顿 / 王学圻 / 范冰冰 S'>BpH-K  
类型: 动作 / 科幻 3?,'`a/2  
官方网站: www.marvel.com/ironman3 %ugl:*>  
制片国家/地区: 美国 / 中国大陆 G'E_"AG+  
语言: 英语 %0~~f'Je  
上映日期: 2013-04-18(伦敦首映) / 2013-05-01(中国大陆) / 2013-05-03(美国) OOB N   
片长: 134分钟(中国大陆) / 130分钟(美国) 7S g2S<f  
又名: 铁甲奇侠3(港) / 钢铁人3(台) / 铁人3 ZPu|h!SG  
IMDb链接: tt1300854 Y?_8#f  
官方小站:《钢铁侠3》 9yPOtIz<  
钢铁侠3的剧情简介 · · · · · · R|Zt_ @qG  
  自纽约事件以来,托尼·斯塔克(小罗伯特·唐尼 Robert Downey Jr. 饰)为前所未有的焦虑症所困扰。他疯狂投入钢铁侠升级版的研发,为此废寝忘食,甚至忽略了女友佩珀·波茨(格温妮斯·帕特洛 Gwyneth Paltrow 饰)的感受。与此同时,臭名昭著的恐怖头目曼达林(本·金斯利 Ben Kingsley 饰)制造了一连串的爆炸袭击事件,托尼当年最忠诚的保镖即在最近的一次袭击中身负重伤。未过多久,托尼、佩珀以及曾与他有过一面之缘的女植物学家玛雅(丽贝卡·豪尔 Rebecca Hall 饰)在家中遭到猛烈的炮火袭击,几乎丧命,而这一切似乎都与22年前那名偶然邂逅的科学家阿尔德里奇·基连(盖·皮尔斯 Guy Pearce 饰)及其终极生物的研究有关。 0(77aJ3Fa  
  即使有精密先进的铠甲护身,也无法排遣发自心底的焦虑。被击碎一切的托尼,如何穿越来自地狱的熊熊烈火…… GR,_#l y8+  
y@;@JztV  
$Sb!Tx  
RD o/slP,  
0r-6%dQa}  
#_o%OHb  
N9*pr~RjD  
AS(.C0]Y`s  
|~UvsV  
=8~w(lV*  
ojE%L}8:  
f!:T`dh  
3))BZE?e  
GrJ9g@<a>  
<_mOGIq  
)6S=&X  
级别: 贵宾
显示用户信息 
1  发表于: 2013-05-26   
[mkv/2.76GB] 鋼鐵人3 Iron Man 3 英语中字
b K?Cin  
lv{Sxn w  
33%.mX  
Iron.Man.3.2013.720p.HDRip.ULTRA.EDiTiON.x264.AC3.LiNE-SmY.mkv [英語版完美音效] f?d; "A  
R|M,jF  
影片原名︰Iron Man 3 NKOa[I6i"  
中文譯名︰鋼鐵俠3/鐵甲奇俠3(港)/鋼鐵人3(台) t09[h4"h  
出品公司︰MarvelStudios xE/e~g)a  
出品年代︰2013 年 Vu;IA>  
上映日期︰2013年5月3日 中國  Jb\Xk<  
影片級別︰Sweden:11 | UK:12A |Ireland:12A | South Korea:12 | USA:PG-13 |:~? CZ  
IMDB鏈接︰http://www.imdb.com/title/tt1300854/ 18!^y`Y  
IMDB評分︰(awaiting 5votes) T3T=p  
國  家︰美國/中國 |.vr,>  
類  別︰動作/科幻/驚悚 wX/ '_yE  
導  演︰沙恩·布萊克 ShaneBlack  "6oTB  
主  演︰小羅伯特·唐尼 Robert Downey Jr.  ....托尼·斯塔克/鋼鐵人 Tony Stark / IronMan T6%K {U2  
     格溫妮絲·帕特洛 Gwyneth Paltrow  ....小辣椒 Pepper Potts dPy{CU]n%  
     唐·錢德爾 DonCheadle  ....詹姆斯·羅迪/戰爭機器 James Rhodes / War Machine S%P?NFIB  
     本·金斯利 BenKingsley  ....曼達林/滿大人 The Mandarin mO%'#Rma?  
     蓋·皮爾斯 Guy Pearce  ....基裡安博士 AldrichKillian M4x U:G=  
     麗貝卡·豪爾 Rebecca Hall  ....瑪雅·漢森 Maya Hansen 8w y ;s0  
     詹姆斯·貝吉·戴爾James Badge Dale  ....「冷血」艾瑞克·賽文 Eric Savin /T;T 4-  
     保羅·貝坦尼 PaulBettany  ....Jarvis (voice) 8M21ZdgrqY  
     喬恩·費儒 Jon Favreau  ....HappyHogan 6/H|4qG;6  
     威廉姆·賽德勒 William Sadler  ....Sal Kennedy W5z6flT  
     斯坦·李 StanLee  ....Stan the Man (rumored) Q{744z{  
     王學圻 Xueqi Wang  ....ChenLu  (s!ZC`  
     斯蒂芬妮·莎絲泰克 Stephanie Szostak "C. zH<,  
     伊溫·茲瑪 Yvonne Zima  ....MissElkridge k~cfQ+o(R  
     黛爾·迪奇 Dale Dickey  ....Mrs.Davis pJ 1OAA  
內容簡介︰  (/\Ksx  
  在《鋼鐵人3》中,托尼·斯塔克將遭遇到一個能力似乎沒有界限的強敵的挑戰。這個人毀壞了斯塔克的生活,而斯塔克只有依靠著自己精良的高科技的裝備才能去尋找究竟是誰才是幕後的元兇。在尋找的過程中,斯塔克非常依賴自己的鋼鐵服,每一次轉折都在測試著他的勇氣。當他最終找到強敵,並且準備展開反戈一擊的時候,斯塔克頓時發現了自己一直以來都面對著一個巨大的問題:到底是戰甲成就了他,還是他造就了這套戰甲! '5Nh"hxE  
eW^ L`]B  
DF%7-4/E  
o7R?6>^^  
CODE: nhX3Yu6X)8  
aJHYo1vi  
o[hg  
Format : Matroska e8]C,p3"D  
      File size : 2.76 GiB hg/q8TK  
      Duration : 2h 10mn 0 nIVn(C  
      Overall bit rate : 3 043 Kbps *hW /   
      Encoded date : UTC 2010-02-22 21:41:31 )>o:aoFwW  
      Writing application : mkvmerge v5.9.0 ('On The Loose') built on Dec  9 2012 15:37:01 B$A(Oy3  
      Writing library : libebml v1.3.0 + libmatroska v1.4.0 (3Sq!i.d  
   Video #1 "z?6!9B8'  
      ID : 1 Jk+zcYGp33  
      Format : AVC V(W^y\&  
      Format/Info : Advanced Video Codec MvER lN  
      Format profile : High@L3.1 7VwJrfcmM  
      Format settings, CABAC : Yes X%CA.rxU^  
      Format settings, ReFrames : 4 frames 3~q==/^T  
      Muxing mode : Header stripping xp e-i&>,!  
      Codec ID : V_MPEG4/ISO/AVC $#s=-/Qh  
      Duration : 2h 10mn MqX*v#Da;  
      Bit rate : 2,800 Kbps ~Ip8bm/8{  
      Width : 1,280 pixels A`Y ]w  
      Height : 520 pixels -~CO ^*UYJ  
      Display aspect ratio : 2.462 CAjQ4~j7U  
      Frame rate : 29.970 fps twz&oJ%  
      Color space : YUV Vt_y#H!P  
      Chroma subsampling : 4:2:0 &C>DoY  
      Bit depth : 8 bits Ojbv0']w t  
      Scan type : Progressive v epmK &  
      Bits/(Pixel*Frame) : 0.140 hl*.3 A  
      Stream size : 2.53 GiB (92%) /}:lywL  
      Writing library : x264 core 116 r2074 2641b9e `16 /\HVy  
      Audio #2 C-N9-`9pc  
      ID : 2 8_<N\e<>3  
      Format : AC-3 vpVLCn  
      Format/Info : Audio Coding 3 n3^R PB  
      Mode extension : CM (complete main) o*]M2{  
      Muxing mode : Header stripping 9^vkX  
      Codec ID : A_AC3 z"dFOW;  
      Duration : 2h 10mn ^_t}3~  
      Bit rate mode : Constant M^c>]xU  
      Bit rate : 192 Kbps uk@#0{2n(  
      Channel(s) : 2 channels h3<  
      Channel positions : Front: L R pA[ wi5Q  
      Sampling rate : 48.0 KHz yP ]7zf}  
      Bit depth : 16 bits pB6.j)p  
      Compression mode : Lossy Wmgc)\7>  
      Stream size : 179 MiB (6%) aM7P3U  
   Text #3 +sKD"5e  
      ID : 3 /9-LI2;zQ  
      Format : SSA oUlq" VV;  
      Codec ID : S_TEXT/SSA [TmOLm  
      Codec ID/Info : Sub Station Alpha I>C7)kz  
      Compression mode : Lossless B-F#P VG  
   Text #4 Xu+?}T`  
      ID : 4 IYZ&?$T  
      Format : SSA Nn[KAT  
      Codec ID : S_TEXT/SSA k_4:%[  
      Codec ID/Info : Sub Station Alpha 1NvV"C  
      Compression mode : Lossless HQZGQQ_-  
電影截圖: d-/}D  
janA!d  
T?B7w{SkN  
OF_ vtI,  
}1|LWW^  
z>:/2; W`  
o)I%<^h%  
l^{x2O1  
l_}[)Q#  
:88wU,w/  
d=c#i_WT  
Cb %na*  
描述
快速回复

验证问题:
正确答案:珠海
按"Ctrl+Enter"直接提交