社区应用 最新帖子 精华区 社区服务 会员列表 统计排行
主题 : [MP4/1.7G] 鋼鐵俠3(英語中字) Iron Man 3
级别: 贵宾
显示用户信息 
0  发表于: 2013-05-26   

[MP4/1.7G] 鋼鐵俠3(英語中字) Iron Man 3

[原創SEED] [MP4/1.7G] 鋼鐵俠3(英語中字) Iron Man 3 s X"43c7  
j;U'0B= ?  
!Ujj!+b  
* D'u(.&  
导演: 沙恩·布莱克 [B<0bW6  
编剧: 沙恩·布莱克 / 德鲁·皮尔斯 / 斯坦·李 / 唐·赫克 / 拉里·利伯 / 杰克·科比 9tiZT`|f  
主演: 小罗伯特·唐尼 / 盖·皮尔斯 / 格温妮斯·帕特洛 / 本·金斯利 / 唐·钱德尔 / 保罗·贝坦尼 / 丽贝卡·豪尔 / 乔恩·费儒 / 威廉姆·赛德勒 / 詹姆斯·戴尔 / 伊芳·齐玛 / 泰·辛普金斯 / 阿什利·汉弥尔顿 / 王学圻 / 范冰冰 <eHJRn|=P<  
类型: 动作 / 科幻 Yr =Bg{:  
官方网站: www.marvel.com/ironman3 <Z^c_}\P  
制片国家/地区: 美国 / 中国大陆 oa QIml  
语言: 英语 VSc's%ZO  
上映日期: 2013-04-18(伦敦首映) / 2013-05-01(中国大陆) / 2013-05-03(美国) 'E~7 6r  
片长: 134分钟(中国大陆) / 130分钟(美国) &T?K82Y  
又名: 铁甲奇侠3(港) / 钢铁人3(台) / 铁人3 <1tvfG  
IMDb链接: tt1300854 knTUo8]|qf  
官方小站:《钢铁侠3》 .L5M<g6i"  
钢铁侠3的剧情简介 · · · · · · uQ4]+  
  自纽约事件以来,托尼·斯塔克(小罗伯特·唐尼 Robert Downey Jr. 饰)为前所未有的焦虑症所困扰。他疯狂投入钢铁侠升级版的研发,为此废寝忘食,甚至忽略了女友佩珀·波茨(格温妮斯·帕特洛 Gwyneth Paltrow 饰)的感受。与此同时,臭名昭著的恐怖头目曼达林(本·金斯利 Ben Kingsley 饰)制造了一连串的爆炸袭击事件,托尼当年最忠诚的保镖即在最近的一次袭击中身负重伤。未过多久,托尼、佩珀以及曾与他有过一面之缘的女植物学家玛雅(丽贝卡·豪尔 Rebecca Hall 饰)在家中遭到猛烈的炮火袭击,几乎丧命,而这一切似乎都与22年前那名偶然邂逅的科学家阿尔德里奇·基连(盖·皮尔斯 Guy Pearce 饰)及其终极生物的研究有关。 @|_HQt <  
  即使有精密先进的铠甲护身,也无法排遣发自心底的焦虑。被击碎一切的托尼,如何穿越来自地狱的熊熊烈火…… a!I/"6n  
coN"%tF}  
qONc{5x J  
<C3}o u@,  
{nQ /O/BM  
B!(VAa"$  
g;!D;QAm  
*oCjE  
~r~Z'Df  
Z<B0a+<  
o|= WB  
$4srh  
lHZA;}BW  
GkY0 g<F!  
T3e~@V  
k,VU\^*h#  
级别: 贵宾
显示用户信息 
1  发表于: 2013-05-26   
[mkv/2.76GB] 鋼鐵人3 Iron Man 3 英语中字
`ZOKZwQ  
v>b'J7JU  
 oRj<H  
Iron.Man.3.2013.720p.HDRip.ULTRA.EDiTiON.x264.AC3.LiNE-SmY.mkv [英語版完美音效] t!&kk8AO  
xcZ{YZ,n1  
影片原名︰Iron Man 3 $A`o)E`m  
中文譯名︰鋼鐵俠3/鐵甲奇俠3(港)/鋼鐵人3(台) F7n))(  
出品公司︰MarvelStudios []Laabb'  
出品年代︰2013 年 Gt] w>  
上映日期︰2013年5月3日 中國 <X`*s<  
影片級別︰Sweden:11 | UK:12A |Ireland:12A | South Korea:12 | USA:PG-13 p @I>4xg  
IMDB鏈接︰http://www.imdb.com/title/tt1300854/ Bk;~ml+|W  
IMDB評分︰(awaiting 5votes) f9NxE  
國  家︰美國/中國 0j]B"m  
類  別︰動作/科幻/驚悚 7[ Qg  
導  演︰沙恩·布萊克 ShaneBlack ezT*o2&6  
主  演︰小羅伯特·唐尼 Robert Downey Jr.  ....托尼·斯塔克/鋼鐵人 Tony Stark / IronMan HD} r  
     格溫妮絲·帕特洛 Gwyneth Paltrow  ....小辣椒 Pepper Potts Nr{X ep  
     唐·錢德爾 DonCheadle  ....詹姆斯·羅迪/戰爭機器 James Rhodes / War Machine +GrM~Wv*  
     本·金斯利 BenKingsley  ....曼達林/滿大人 The Mandarin nMxjd 0xU  
     蓋·皮爾斯 Guy Pearce  ....基裡安博士 AldrichKillian <E3xI~}  
     麗貝卡·豪爾 Rebecca Hall  ....瑪雅·漢森 Maya Hansen <)m8C0  
     詹姆斯·貝吉·戴爾James Badge Dale  ....「冷血」艾瑞克·賽文 Eric Savin ) $9;Rx}_  
     保羅·貝坦尼 PaulBettany  ....Jarvis (voice) Bd y)%]  
     喬恩·費儒 Jon Favreau  ....HappyHogan =.@<PJ/?!  
     威廉姆·賽德勒 William Sadler  ....Sal Kennedy 9<Ky60  
     斯坦·李 StanLee  ....Stan the Man (rumored) bot!{'xT)  
     王學圻 Xueqi Wang  ....ChenLu or20=,Z  
     斯蒂芬妮·莎絲泰克 Stephanie Szostak >|QIr' Qv  
     伊溫·茲瑪 Yvonne Zima  ....MissElkridge Z=q;;p*;O  
     黛爾·迪奇 Dale Dickey  ....Mrs.Davis 0p/>TJ`  
內容簡介︰ 9(@ )  
  在《鋼鐵人3》中,托尼·斯塔克將遭遇到一個能力似乎沒有界限的強敵的挑戰。這個人毀壞了斯塔克的生活,而斯塔克只有依靠著自己精良的高科技的裝備才能去尋找究竟是誰才是幕後的元兇。在尋找的過程中,斯塔克非常依賴自己的鋼鐵服,每一次轉折都在測試著他的勇氣。當他最終找到強敵,並且準備展開反戈一擊的時候,斯塔克頓時發現了自己一直以來都面對著一個巨大的問題:到底是戰甲成就了他,還是他造就了這套戰甲! kUgi.~}F  
F.Sf#X  
D L}  
==#~_n<`u  
CODE: /Y5upo  
: e3HY  
buwg:~(O  
Format : Matroska :L951%86G  
      File size : 2.76 GiB !""rIu  
      Duration : 2h 10mn A^/t=ccx  
      Overall bit rate : 3 043 Kbps qLi4ie3?(%  
      Encoded date : UTC 2010-02-22 21:41:31 i/GKq 2  
      Writing application : mkvmerge v5.9.0 ('On The Loose') built on Dec  9 2012 15:37:01 !vG4;  
      Writing library : libebml v1.3.0 + libmatroska v1.4.0 =5:gl7X  
   Video #1 O92CLL  
      ID : 1 >Gbb (h  
      Format : AVC &}EJv !*  
      Format/Info : Advanced Video Codec *$y~FC|  
      Format profile : High@L3.1 >52!<a  
      Format settings, CABAC : Yes cQ~fy'C#*  
      Format settings, ReFrames : 4 frames \Nfku  
      Muxing mode : Header stripping f&d)R}YZ  
      Codec ID : V_MPEG4/ISO/AVC D{% -<S  
      Duration : 2h 10mn B)*LtI/[v!  
      Bit rate : 2,800 Kbps h ]T;m  
      Width : 1,280 pixels DWJ 0+w  
      Height : 520 pixels !c#"~at  
      Display aspect ratio : 2.462 =\+}F"!W  
      Frame rate : 29.970 fps R9.F-Nr`  
      Color space : YUV ,Ec0 AC@  
      Chroma subsampling : 4:2:0 6}}gf&=  
      Bit depth : 8 bits ?9 g qv!  
      Scan type : Progressive m0VL;u*6K  
      Bits/(Pixel*Frame) : 0.140  j8OBeI(  
      Stream size : 2.53 GiB (92%) ^aAs+  
      Writing library : x264 core 116 r2074 2641b9e do T9*7Q   
      Audio #2 jJGm!mw  
      ID : 2 Vk`$*R}  
      Format : AC-3 7rm|2]  
      Format/Info : Audio Coding 3 J|9@-kY\  
      Mode extension : CM (complete main) mqwue6B l  
      Muxing mode : Header stripping /BgUS ]Y:  
      Codec ID : A_AC3 w; EMPHh  
      Duration : 2h 10mn +kds<YQ/"  
      Bit rate mode : Constant CqV4L&noz  
      Bit rate : 192 Kbps +;WfQ!D  
      Channel(s) : 2 channels bzniDsR  
      Channel positions : Front: L R = nM.  
      Sampling rate : 48.0 KHz 4_8>TLI 2  
      Bit depth : 16 bits +&8    
      Compression mode : Lossy ;)r\}Q*)N  
      Stream size : 179 MiB (6%) 38%A X nt  
   Text #3 ^0iVY[q>  
      ID : 3 c2k;`PF  
      Format : SSA \`Ss>$  
      Codec ID : S_TEXT/SSA 5@3 H3U{  
      Codec ID/Info : Sub Station Alpha [P7 ={'  
      Compression mode : Lossless 0,&1O2B|  
   Text #4  u( mMm  
      ID : 4 mZhF5iIp8  
      Format : SSA T.<y]Usp{  
      Codec ID : S_TEXT/SSA Q?M9bDl  
      Codec ID/Info : Sub Station Alpha 6 Jl[o+;W  
      Compression mode : Lossless 7[T7tAy  
電影截圖: WgL[C!^RA  
'0 YuA ]n3  
F=34d#9z  
rjd Hekwq  
,t{S]J]{  
'e )a^,>h]  
v[]|npTt  
qUWTLwIi?v  
CK><j_1QJ  
GClV  
PwZ  -t  
mT>t9   
描述
快速回复

验证问题:
正确答案:珠海
按"Ctrl+Enter"直接提交