社区应用 最新帖子 精华区 社区服务 会员列表 统计排行
主题 : [MP4/1.7G] 鋼鐵俠3(英語中字) Iron Man 3
级别: 贵宾
显示用户信息 
0  发表于: 2013-05-26   

[MP4/1.7G] 鋼鐵俠3(英語中字) Iron Man 3

[原創SEED] [MP4/1.7G] 鋼鐵俠3(英語中字) Iron Man 3  ,{\Tx^  
U+|$y9x,  
w[~2C1  
Z)'Dbh|WVz  
导演: 沙恩·布莱克 Q;or J&  
编剧: 沙恩·布莱克 / 德鲁·皮尔斯 / 斯坦·李 / 唐·赫克 / 拉里·利伯 / 杰克·科比 44@L8C  
主演: 小罗伯特·唐尼 / 盖·皮尔斯 / 格温妮斯·帕特洛 / 本·金斯利 / 唐·钱德尔 / 保罗·贝坦尼 / 丽贝卡·豪尔 / 乔恩·费儒 / 威廉姆·赛德勒 / 詹姆斯·戴尔 / 伊芳·齐玛 / 泰·辛普金斯 / 阿什利·汉弥尔顿 / 王学圻 / 范冰冰 V(+9;2w*  
类型: 动作 / 科幻 RVz:WEYU  
官方网站: www.marvel.com/ironman3 7/NNG.ww  
制片国家/地区: 美国 / 中国大陆 &X!A@   
语言: 英语 sB}u?_b)  
上映日期: 2013-04-18(伦敦首映) / 2013-05-01(中国大陆) / 2013-05-03(美国) iKT<H<H  
片长: 134分钟(中国大陆) / 130分钟(美国) P&4rH  
又名: 铁甲奇侠3(港) / 钢铁人3(台) / 铁人3 ~hD0G (-  
IMDb链接: tt1300854 ?&Y<m@ Pa  
官方小站:《钢铁侠3》 1+S?F,z1=  
钢铁侠3的剧情简介 · · · · · · @2/I@  
  自纽约事件以来,托尼·斯塔克(小罗伯特·唐尼 Robert Downey Jr. 饰)为前所未有的焦虑症所困扰。他疯狂投入钢铁侠升级版的研发,为此废寝忘食,甚至忽略了女友佩珀·波茨(格温妮斯·帕特洛 Gwyneth Paltrow 饰)的感受。与此同时,臭名昭著的恐怖头目曼达林(本·金斯利 Ben Kingsley 饰)制造了一连串的爆炸袭击事件,托尼当年最忠诚的保镖即在最近的一次袭击中身负重伤。未过多久,托尼、佩珀以及曾与他有过一面之缘的女植物学家玛雅(丽贝卡·豪尔 Rebecca Hall 饰)在家中遭到猛烈的炮火袭击,几乎丧命,而这一切似乎都与22年前那名偶然邂逅的科学家阿尔德里奇·基连(盖·皮尔斯 Guy Pearce 饰)及其终极生物的研究有关。 'P"@6C y  
  即使有精密先进的铠甲护身,也无法排遣发自心底的焦虑。被击碎一切的托尼,如何穿越来自地狱的熊熊烈火…… 'Q>|\<N@*  
t 50m{t  
zS?b'|z  
xW1N'puu   
8ktzTXdZ  
-bJO\Txs  
6*sYA%%U  
b}<xO(  
9Wu c<+  
]m 3dG,[  
?K8Z3f,D  
:,I?%G*a  
Y*zcWx\:D  
Hr0isgw  
sZQO wxUE  
+b~ wz )PS  
级别: 贵宾
显示用户信息 
1  发表于: 2013-05-26   
[mkv/2.76GB] 鋼鐵人3 Iron Man 3 英语中字
HUGO i  
_uVeN+   
do0D*o&<zw  
Iron.Man.3.2013.720p.HDRip.ULTRA.EDiTiON.x264.AC3.LiNE-SmY.mkv [英語版完美音效] IiI mv~ ?  
7yz#qwGm  
影片原名︰Iron Man 3 D&ymn -JW  
中文譯名︰鋼鐵俠3/鐵甲奇俠3(港)/鋼鐵人3(台) `w5,IMt3u2  
出品公司︰MarvelStudios 8?jUy_  
出品年代︰2013 年 dzTK^H_  
上映日期︰2013年5月3日 中國 GJw$]n  
影片級別︰Sweden:11 | UK:12A |Ireland:12A | South Korea:12 | USA:PG-13 G8i|]i93  
IMDB鏈接︰http://www.imdb.com/title/tt1300854/ \2x MX*/  
IMDB評分︰(awaiting 5votes) %! Hc$/$  
國  家︰美國/中國 (Lo._&@9  
類  別︰動作/科幻/驚悚 0 YPk^/  
導  演︰沙恩·布萊克 ShaneBlack I0V^  
主  演︰小羅伯特·唐尼 Robert Downey Jr.  ....托尼·斯塔克/鋼鐵人 Tony Stark / IronMan wc}v}y|7  
     格溫妮絲·帕特洛 Gwyneth Paltrow  ....小辣椒 Pepper Potts U nT5'4  
     唐·錢德爾 DonCheadle  ....詹姆斯·羅迪/戰爭機器 James Rhodes / War Machine 4lv{6>Tdyz  
     本·金斯利 BenKingsley  ....曼達林/滿大人 The Mandarin <&S*\L]H^2  
     蓋·皮爾斯 Guy Pearce  ....基裡安博士 AldrichKillian -5tYB  
     麗貝卡·豪爾 Rebecca Hall  ....瑪雅·漢森 Maya Hansen %N JqeC  
     詹姆斯·貝吉·戴爾James Badge Dale  ....「冷血」艾瑞克·賽文 Eric Savin vc`9|>G1  
     保羅·貝坦尼 PaulBettany  ....Jarvis (voice) _SI,U;e  
     喬恩·費儒 Jon Favreau  ....HappyHogan o PXhYme  
     威廉姆·賽德勒 William Sadler  ....Sal Kennedy g.HrR,(Q  
     斯坦·李 StanLee  ....Stan the Man (rumored) T4=P>2T  
     王學圻 Xueqi Wang  ....ChenLu X2v_B]g  
     斯蒂芬妮·莎絲泰克 Stephanie Szostak O+G:[AYWz  
     伊溫·茲瑪 Yvonne Zima  ....MissElkridge w}m}G P  
     黛爾·迪奇 Dale Dickey  ....Mrs.Davis (g|Pdx"NR  
內容簡介︰ 0/{0PDBpi0  
  在《鋼鐵人3》中,托尼·斯塔克將遭遇到一個能力似乎沒有界限的強敵的挑戰。這個人毀壞了斯塔克的生活,而斯塔克只有依靠著自己精良的高科技的裝備才能去尋找究竟是誰才是幕後的元兇。在尋找的過程中,斯塔克非常依賴自己的鋼鐵服,每一次轉折都在測試著他的勇氣。當他最終找到強敵,並且準備展開反戈一擊的時候,斯塔克頓時發現了自己一直以來都面對著一個巨大的問題:到底是戰甲成就了他,還是他造就了這套戰甲! )bale3  
2O)"`6Yozs  
 0ZNp<.M  
8n Nu#rNH  
CODE: I:mDO-94?{  
eNn^ `  
HM+ 1l8U6  
Format : Matroska UM|$mY]r  
      File size : 2.76 GiB W%Bqk1  
      Duration : 2h 10mn <Vpz}p  
      Overall bit rate : 3 043 Kbps *G6tW.oi  
      Encoded date : UTC 2010-02-22 21:41:31 +WX}}u9F`  
      Writing application : mkvmerge v5.9.0 ('On The Loose') built on Dec  9 2012 15:37:01 X4ZD]zjC  
      Writing library : libebml v1.3.0 + libmatroska v1.4.0 tf}.IZ@ c  
   Video #1 &eWmJZ22;  
      ID : 1  <[[AN  
      Format : AVC V|+6WX  
      Format/Info : Advanced Video Codec c'2n^PdyO  
      Format profile : High@L3.1 u1&Vrd'}  
      Format settings, CABAC : Yes NR=rcjcol  
      Format settings, ReFrames : 4 frames C-#Lc4C6  
      Muxing mode : Header stripping (m!Yh!L0  
      Codec ID : V_MPEG4/ISO/AVC N&@@:0xv [  
      Duration : 2h 10mn X1a>>b46q  
      Bit rate : 2,800 Kbps 9SLSmO   
      Width : 1,280 pixels /tkh/\c  
      Height : 520 pixels 36x\t2jN  
      Display aspect ratio : 2.462 p~F#qlLrH  
      Frame rate : 29.970 fps z'u Zj_  
      Color space : YUV CBJ' A\g  
      Chroma subsampling : 4:2:0 kw|.}6z  
      Bit depth : 8 bits Eo Iz8  
      Scan type : Progressive g?5^fy$r\  
      Bits/(Pixel*Frame) : 0.140 X ]H |1aBi  
      Stream size : 2.53 GiB (92%) ]soS5h{m  
      Writing library : x264 core 116 r2074 2641b9e ]#0*|G  
      Audio #2 AtcWE59b  
      ID : 2 TxZNP /  
      Format : AC-3 V~*_, sy-  
      Format/Info : Audio Coding 3 !QUA'N  
      Mode extension : CM (complete main) tT@qN`,_r  
      Muxing mode : Header stripping }y8vIZc0d  
      Codec ID : A_AC3 /48vN E  
      Duration : 2h 10mn eHCz`s}#k  
      Bit rate mode : Constant } a}UgrE\  
      Bit rate : 192 Kbps a1Jo=t|5  
      Channel(s) : 2 channels >=p;:<P  
      Channel positions : Front: L R 1$XgTpKh  
      Sampling rate : 48.0 KHz 8Yq(uLPT  
      Bit depth : 16 bits hq9Z=<td_  
      Compression mode : Lossy h + z}  
      Stream size : 179 MiB (6%) ]s{~<Dxa  
   Text #3 J16P +  
      ID : 3 Vv]M%  
      Format : SSA Mf{>9#^*  
      Codec ID : S_TEXT/SSA .Gmy}  
      Codec ID/Info : Sub Station Alpha 3#~g<KKn  
      Compression mode : Lossless &RV1~;,8  
   Text #4 lIVHR$|=  
      ID : 4 EeWqv604^  
      Format : SSA Ji&k h-4A  
      Codec ID : S_TEXT/SSA ]0qQ X<K  
      Codec ID/Info : Sub Station Alpha 7rL4 Uu  
      Compression mode : Lossless g;w`t09|Fw  
電影截圖: <\YI}L  
D}I!C  
;&Ni]q5r(  
KJ[FeQ7rMh  
J; c   
{.emQ(o  
O qiSd,N  
#0|f  nj  
`F/tYQPF  
D-Vje%n   
`/K!FB   
E.,Hpb\,9  
描述
快速回复

验证问题:
正确答案:珠海
按"Ctrl+Enter"直接提交