社区应用 最新帖子 精华区 社区服务 会员列表 统计排行
主题 : [MP4/1.7G] 鋼鐵俠3(英語中字) Iron Man 3
级别: 贵宾
显示用户信息 
0  发表于: 2013-05-26   

[MP4/1.7G] 鋼鐵俠3(英語中字) Iron Man 3

[原創SEED] [MP4/1.7G] 鋼鐵俠3(英語中字) Iron Man 3 Li-l/T~xT  
{QOl&LMn6  
'8/;0#kk  
Xe8zKh; C  
导演: 沙恩·布莱克 c~V=gz?~L  
编剧: 沙恩·布莱克 / 德鲁·皮尔斯 / 斯坦·李 / 唐·赫克 / 拉里·利伯 / 杰克·科比 Ci>w]42  
主演: 小罗伯特·唐尼 / 盖·皮尔斯 / 格温妮斯·帕特洛 / 本·金斯利 / 唐·钱德尔 / 保罗·贝坦尼 / 丽贝卡·豪尔 / 乔恩·费儒 / 威廉姆·赛德勒 / 詹姆斯·戴尔 / 伊芳·齐玛 / 泰·辛普金斯 / 阿什利·汉弥尔顿 / 王学圻 / 范冰冰 UGss?5o  
类型: 动作 / 科幻 CNNoU(z :+  
官方网站: www.marvel.com/ironman3 M*\n"|  
制片国家/地区: 美国 / 中国大陆 H%d&7=^j  
语言: 英语 K[&  
上映日期: 2013-04-18(伦敦首映) / 2013-05-01(中国大陆) / 2013-05-03(美国) mgpeMc5R3  
片长: 134分钟(中国大陆) / 130分钟(美国) Wuw\W/}  
又名: 铁甲奇侠3(港) / 钢铁人3(台) / 铁人3 w3a.p{W}  
IMDb链接: tt1300854 B e1GK_  
官方小站:《钢铁侠3》 KeCe uv_  
钢铁侠3的剧情简介 · · · · · · N$[+hrh)  
  自纽约事件以来,托尼·斯塔克(小罗伯特·唐尼 Robert Downey Jr. 饰)为前所未有的焦虑症所困扰。他疯狂投入钢铁侠升级版的研发,为此废寝忘食,甚至忽略了女友佩珀·波茨(格温妮斯·帕特洛 Gwyneth Paltrow 饰)的感受。与此同时,臭名昭著的恐怖头目曼达林(本·金斯利 Ben Kingsley 饰)制造了一连串的爆炸袭击事件,托尼当年最忠诚的保镖即在最近的一次袭击中身负重伤。未过多久,托尼、佩珀以及曾与他有过一面之缘的女植物学家玛雅(丽贝卡·豪尔 Rebecca Hall 饰)在家中遭到猛烈的炮火袭击,几乎丧命,而这一切似乎都与22年前那名偶然邂逅的科学家阿尔德里奇·基连(盖·皮尔斯 Guy Pearce 饰)及其终极生物的研究有关。 Eu,idWG  
  即使有精密先进的铠甲护身,也无法排遣发自心底的焦虑。被击碎一切的托尼,如何穿越来自地狱的熊熊烈火…… 8rKTdz?  
'.S^]):  
gxL}q  
)an*  
3` U}1Y2L  
b|N2~UA  
[H/M"+5w.|  
V4:ocz5  
Modo3ku  
N|/G%p=F  
X/f 1#(gP  
[;*3-+\s  
]5 (MR  
3x687\  
gk'rdl4K  
|e2~'E6  
级别: 贵宾
显示用户信息 
1  发表于: 2013-05-26   
[mkv/2.76GB] 鋼鐵人3 Iron Man 3 英语中字
,oF"0WG`{  
6@X_(h  
)t-N9F0  
Iron.Man.3.2013.720p.HDRip.ULTRA.EDiTiON.x264.AC3.LiNE-SmY.mkv [英語版完美音效] (yc5NQg{  
U&(UJ:I~'Q  
影片原名︰Iron Man 3 0]%z=u>6  
中文譯名︰鋼鐵俠3/鐵甲奇俠3(港)/鋼鐵人3(台) 9joq/YD(m  
出品公司︰MarvelStudios OFDC%&%K  
出品年代︰2013 年 H97U "  
上映日期︰2013年5月3日 中國 ?+Ej;c H  
影片級別︰Sweden:11 | UK:12A |Ireland:12A | South Korea:12 | USA:PG-13 = Eas'  
IMDB鏈接︰http://www.imdb.com/title/tt1300854/ |h^)JyL?%  
IMDB評分︰(awaiting 5votes) :7[^: T  
國  家︰美國/中國 >7wxK2d  
類  別︰動作/科幻/驚悚 VgfKY  
導  演︰沙恩·布萊克 ShaneBlack \#L)A}]@B8  
主  演︰小羅伯特·唐尼 Robert Downey Jr.  ....托尼·斯塔克/鋼鐵人 Tony Stark / IronMan OvI^Lb9{  
     格溫妮絲·帕特洛 Gwyneth Paltrow  ....小辣椒 Pepper Potts oGgnYAU+-  
     唐·錢德爾 DonCheadle  ....詹姆斯·羅迪/戰爭機器 James Rhodes / War Machine T;J'y|kEQ  
     本·金斯利 BenKingsley  ....曼達林/滿大人 The Mandarin ^w>WGX@  
     蓋·皮爾斯 Guy Pearce  ....基裡安博士 AldrichKillian (>1<T@k  
     麗貝卡·豪爾 Rebecca Hall  ....瑪雅·漢森 Maya Hansen Q8(!AYo=h  
     詹姆斯·貝吉·戴爾James Badge Dale  ....「冷血」艾瑞克·賽文 Eric Savin $)nyt~  
     保羅·貝坦尼 PaulBettany  ....Jarvis (voice) Xen@)zp^  
     喬恩·費儒 Jon Favreau  ....HappyHogan GzIkMf^Hk  
     威廉姆·賽德勒 William Sadler  ....Sal Kennedy ;fa!<Oo  
     斯坦·李 StanLee  ....Stan the Man (rumored) 9 U8R,"  
     王學圻 Xueqi Wang  ....ChenLu w!>VI]  
     斯蒂芬妮·莎絲泰克 Stephanie Szostak `D9JJ =  
     伊溫·茲瑪 Yvonne Zima  ....MissElkridge h0p'Ih.zo  
     黛爾·迪奇 Dale Dickey  ....Mrs.Davis ^f2$l>1  
內容簡介︰ |/dC 5vR$2  
  在《鋼鐵人3》中,托尼·斯塔克將遭遇到一個能力似乎沒有界限的強敵的挑戰。這個人毀壞了斯塔克的生活,而斯塔克只有依靠著自己精良的高科技的裝備才能去尋找究竟是誰才是幕後的元兇。在尋找的過程中,斯塔克非常依賴自己的鋼鐵服,每一次轉折都在測試著他的勇氣。當他最終找到強敵,並且準備展開反戈一擊的時候,斯塔克頓時發現了自己一直以來都面對著一個巨大的問題:到底是戰甲成就了他,還是他造就了這套戰甲! .H# ~u_?  
]r}N=&&Zy  
uchj [(b  
*,?&p7gkt  
CODE: {IyP;pGSBn  
}IALhU@w  
0JO *nU  
Format : Matroska 0URCo%4jE  
      File size : 2.76 GiB :Wr'w-"}  
      Duration : 2h 10mn t?4xB`-1  
      Overall bit rate : 3 043 Kbps I1PZ:aS3  
      Encoded date : UTC 2010-02-22 21:41:31 >b=  
      Writing application : mkvmerge v5.9.0 ('On The Loose') built on Dec  9 2012 15:37:01 i) ybn  
      Writing library : libebml v1.3.0 + libmatroska v1.4.0 <CC 8aHuk  
   Video #1 2vFiSd  
      ID : 1 `@9(WJ -^  
      Format : AVC "vF~"U  
      Format/Info : Advanced Video Codec >,EVL=p8V  
      Format profile : High@L3.1 VHI> gK3  
      Format settings, CABAC : Yes t$)=Ql;{  
      Format settings, ReFrames : 4 frames Pd%ED 0{4  
      Muxing mode : Header stripping GS`*qMu_*  
      Codec ID : V_MPEG4/ISO/AVC RC I5DCgW  
      Duration : 2h 10mn rd!vPah  
      Bit rate : 2,800 Kbps ?<mO(`+  
      Width : 1,280 pixels c4-m}<  
      Height : 520 pixels $MYv   
      Display aspect ratio : 2.462 (d&d|.c.  
      Frame rate : 29.970 fps ?@q&;lV;  
      Color space : YUV r.)[fH/  
      Chroma subsampling : 4:2:0 9 z;pt  
      Bit depth : 8 bits 0 5?,<PFsz  
      Scan type : Progressive !*O=yym  
      Bits/(Pixel*Frame) : 0.140 e[L%W\Y  
      Stream size : 2.53 GiB (92%) i2irzdtn  
      Writing library : x264 core 116 r2074 2641b9e Pa]+ D  
      Audio #2 & }9<K%nD  
      ID : 2 IWXDSi#v  
      Format : AC-3 `}k*67JiTB  
      Format/Info : Audio Coding 3 iNq]Ii:  
      Mode extension : CM (complete main) fqF\Z{+  
      Muxing mode : Header stripping 5knx?1l3  
      Codec ID : A_AC3 6:/("Mi  
      Duration : 2h 10mn %wjd>] r  
      Bit rate mode : Constant ,tmmfob+X  
      Bit rate : 192 Kbps p3h&~v"m  
      Channel(s) : 2 channels c: g%&\DR  
      Channel positions : Front: L R oFhww4mY|  
      Sampling rate : 48.0 KHz i9:|6Hdv  
      Bit depth : 16 bits F)3q x/4<  
      Compression mode : Lossy P{$[NO=  
      Stream size : 179 MiB (6%) wXnj488V  
   Text #3 G0u]o\p  
      ID : 3 .JrNc:  
      Format : SSA Csv/_vag  
      Codec ID : S_TEXT/SSA 3YDP7M  
      Codec ID/Info : Sub Station Alpha 6]$UzOz  
      Compression mode : Lossless FI*F..`1r  
   Text #4 sEgWuw`  
      ID : 4 = uP9[{az  
      Format : SSA U8R 'l#{y  
      Codec ID : S_TEXT/SSA Z8kKU8k  
      Codec ID/Info : Sub Station Alpha v+ @i 6:3  
      Compression mode : Lossless !jy~N?>c  
電影截圖: 15s IIu>  
'uV0;"O  
Tt",\\4W  
S+p wZGf9  
c7z~pc_)C  
M4{y}(H~d  
$](t   
DeU;+\DT  
mK#lfm  
4,A"  
hu#%].8  
KSCC8$M=  
描述
快速回复

验证问题:
正确答案:珠海
按"Ctrl+Enter"直接提交