社区应用 最新帖子 精华区 社区服务 会员列表 统计排行
主题 : [MP4/1.7G] 鋼鐵俠3(英語中字) Iron Man 3
级别: 贵宾
显示用户信息 
0  发表于: 2013-05-26   

[MP4/1.7G] 鋼鐵俠3(英語中字) Iron Man 3

[原創SEED] [MP4/1.7G] 鋼鐵俠3(英語中字) Iron Man 3 ^U(~`C^qS  
G$Ol_~:L>  
4(<&/-hu(p  
q^CL$QXD6y  
导演: 沙恩·布莱克 ABPOh  
编剧: 沙恩·布莱克 / 德鲁·皮尔斯 / 斯坦·李 / 唐·赫克 / 拉里·利伯 / 杰克·科比 S5d T\>q9  
主演: 小罗伯特·唐尼 / 盖·皮尔斯 / 格温妮斯·帕特洛 / 本·金斯利 / 唐·钱德尔 / 保罗·贝坦尼 / 丽贝卡·豪尔 / 乔恩·费儒 / 威廉姆·赛德勒 / 詹姆斯·戴尔 / 伊芳·齐玛 / 泰·辛普金斯 / 阿什利·汉弥尔顿 / 王学圻 / 范冰冰 `xR){9cg   
类型: 动作 / 科幻 : V Z>  
官方网站: www.marvel.com/ironman3 ,+9kC}r/L"  
制片国家/地区: 美国 / 中国大陆 ]]=~pF 'NG  
语言: 英语 ktaN  
上映日期: 2013-04-18(伦敦首映) / 2013-05-01(中国大陆) / 2013-05-03(美国) T:^QT.?_i  
片长: 134分钟(中国大陆) / 130分钟(美国) 0BHwA>\  
又名: 铁甲奇侠3(港) / 钢铁人3(台) / 铁人3 le2J .\5  
IMDb链接: tt1300854 =HFpF^3&`  
官方小站:《钢铁侠3》 1T _7"|x*P  
钢铁侠3的剧情简介 · · · · · · @<NqqGFnL  
  自纽约事件以来,托尼·斯塔克(小罗伯特·唐尼 Robert Downey Jr. 饰)为前所未有的焦虑症所困扰。他疯狂投入钢铁侠升级版的研发,为此废寝忘食,甚至忽略了女友佩珀·波茨(格温妮斯·帕特洛 Gwyneth Paltrow 饰)的感受。与此同时,臭名昭著的恐怖头目曼达林(本·金斯利 Ben Kingsley 饰)制造了一连串的爆炸袭击事件,托尼当年最忠诚的保镖即在最近的一次袭击中身负重伤。未过多久,托尼、佩珀以及曾与他有过一面之缘的女植物学家玛雅(丽贝卡·豪尔 Rebecca Hall 饰)在家中遭到猛烈的炮火袭击,几乎丧命,而这一切似乎都与22年前那名偶然邂逅的科学家阿尔德里奇·基连(盖·皮尔斯 Guy Pearce 饰)及其终极生物的研究有关。 y"mF%hPJ  
  即使有精密先进的铠甲护身,也无法排遣发自心底的焦虑。被击碎一切的托尼,如何穿越来自地狱的熊熊烈火…… yX/\1{nr  
v JhdlO  
|u Q :jy  
k>H1i  
H&*(^R<3  
OkTe(  
lLh3<cn=  
[(p1,3y  
&>;y6(xQ0l  
<]H #yCVy  
2x1qv  W  
KZ9V='&ynz  
=/yAkd  
!Qh1VqO:  
T@FFlv<U#  
R:}|`n-A  
级别: 贵宾
显示用户信息 
1  发表于: 2013-05-26   
[mkv/2.76GB] 鋼鐵人3 Iron Man 3 英语中字
5AnW<u\K  
a{Qbg`:H  
YT/ HrN  
Iron.Man.3.2013.720p.HDRip.ULTRA.EDiTiON.x264.AC3.LiNE-SmY.mkv [英語版完美音效] p(TIEMu  
2}I&<s  
影片原名︰Iron Man 3 e0Z(|;WL6  
中文譯名︰鋼鐵俠3/鐵甲奇俠3(港)/鋼鐵人3(台) R5=Om m |  
出品公司︰MarvelStudios -5,p XCd  
出品年代︰2013 年 i\D=Cd*~vE  
上映日期︰2013年5月3日 中國 DZ9dAT  
影片級別︰Sweden:11 | UK:12A |Ireland:12A | South Korea:12 | USA:PG-13 Evi?>  
IMDB鏈接︰http://www.imdb.com/title/tt1300854/ >WocwzrG  
IMDB評分︰(awaiting 5votes) )]sXvV ,  
國  家︰美國/中國 :=@!G)Qj5  
類  別︰動作/科幻/驚悚 y8ev9*  
導  演︰沙恩·布萊克 ShaneBlack i[Z_ Whke  
主  演︰小羅伯特·唐尼 Robert Downey Jr.  ....托尼·斯塔克/鋼鐵人 Tony Stark / IronMan 5Z)\C?q  
     格溫妮絲·帕特洛 Gwyneth Paltrow  ....小辣椒 Pepper Potts cjr{B` jxC  
     唐·錢德爾 DonCheadle  ....詹姆斯·羅迪/戰爭機器 James Rhodes / War Machine 2pH( |4  
     本·金斯利 BenKingsley  ....曼達林/滿大人 The Mandarin 3A$c"}Q  
     蓋·皮爾斯 Guy Pearce  ....基裡安博士 AldrichKillian gt*P%}kh6  
     麗貝卡·豪爾 Rebecca Hall  ....瑪雅·漢森 Maya Hansen 3%y2/-vqZ  
     詹姆斯·貝吉·戴爾James Badge Dale  ....「冷血」艾瑞克·賽文 Eric Savin f (:)VcI  
     保羅·貝坦尼 PaulBettany  ....Jarvis (voice) -k&3x2aq  
     喬恩·費儒 Jon Favreau  ....HappyHogan g7GqP![w  
     威廉姆·賽德勒 William Sadler  ....Sal Kennedy 2fE:iu=  
     斯坦·李 StanLee  ....Stan the Man (rumored) p1~t-![fn  
     王學圻 Xueqi Wang  ....ChenLu f(8WjT^q  
     斯蒂芬妮·莎絲泰克 Stephanie Szostak > @ oOU  
     伊溫·茲瑪 Yvonne Zima  ....MissElkridge FE1B8gu9  
     黛爾·迪奇 Dale Dickey  ....Mrs.Davis PQr'OW-#+u  
內容簡介︰ 4VH#]Fw  
  在《鋼鐵人3》中,托尼·斯塔克將遭遇到一個能力似乎沒有界限的強敵的挑戰。這個人毀壞了斯塔克的生活,而斯塔克只有依靠著自己精良的高科技的裝備才能去尋找究竟是誰才是幕後的元兇。在尋找的過程中,斯塔克非常依賴自己的鋼鐵服,每一次轉折都在測試著他的勇氣。當他最終找到強敵,並且準備展開反戈一擊的時候,斯塔克頓時發現了自己一直以來都面對著一個巨大的問題:到底是戰甲成就了他,還是他造就了這套戰甲! <_4,I!5  
aC2DgvY-  
GOH&L'QQB  
O*}z#Ff  
CODE: '{@'5ci.`[  
R] LECY>w  
N[RKR?^=@  
Format : Matroska 0't(~vDs^i  
      File size : 2.76 GiB 2I=z *Haq  
      Duration : 2h 10mn >[bG[fWT  
      Overall bit rate : 3 043 Kbps hi'id$4  
      Encoded date : UTC 2010-02-22 21:41:31 x~ JUL1  
      Writing application : mkvmerge v5.9.0 ('On The Loose') built on Dec  9 2012 15:37:01 Mco;.:<f  
      Writing library : libebml v1.3.0 + libmatroska v1.4.0 .kY9y,@F  
   Video #1 fzA3aqZ?  
      ID : 1 (uJnN  
      Format : AVC 13l) 9En  
      Format/Info : Advanced Video Codec FnK* D  
      Format profile : High@L3.1 [ 9<`|r  
      Format settings, CABAC : Yes d.\Ir rAk  
      Format settings, ReFrames : 4 frames /J&[<cD  
      Muxing mode : Header stripping WeqG{|t  
      Codec ID : V_MPEG4/ISO/AVC hyS+,T  
      Duration : 2h 10mn ^,?p v  
      Bit rate : 2,800 Kbps <C 9"_  
      Width : 1,280 pixels i0}"[V>  
      Height : 520 pixels ]Uy#Wb  
      Display aspect ratio : 2.462 NF.!:0  
      Frame rate : 29.970 fps cB-?~  
      Color space : YUV \*H|"{$+  
      Chroma subsampling : 4:2:0 -L}BUL]c,  
      Bit depth : 8 bits o'D AA+  
      Scan type : Progressive XWe({S#u;  
      Bits/(Pixel*Frame) : 0.140 h(WUu:M<  
      Stream size : 2.53 GiB (92%) )vWPs^0 E  
      Writing library : x264 core 116 r2074 2641b9e Y >TdY  
      Audio #2 7>c O(|Q  
      ID : 2 [gR6# ^wt  
      Format : AC-3 Nf"Nad  
      Format/Info : Audio Coding 3 $-Yt|W  
      Mode extension : CM (complete main) liR9WG"  
      Muxing mode : Header stripping {\g4l.Hf  
      Codec ID : A_AC3 J(Z5%4o<K  
      Duration : 2h 10mn 0FoFTt\  
      Bit rate mode : Constant AO{z^ #ajt  
      Bit rate : 192 Kbps .d8ip@<  
      Channel(s) : 2 channels s/1@!T.3  
      Channel positions : Front: L R /Iz[R(Ar  
      Sampling rate : 48.0 KHz SHLyBw{J  
      Bit depth : 16 bits GJgQc|~u  
      Compression mode : Lossy ="`fxV_g  
      Stream size : 179 MiB (6%) sgmu8`wY  
   Text #3 T#JL?IM.9  
      ID : 3 k;qP/cSH  
      Format : SSA 6`#a5ple  
      Codec ID : S_TEXT/SSA ;3oEds  
      Codec ID/Info : Sub Station Alpha +F<r>:W  
      Compression mode : Lossless SY?vAd  
   Text #4 -?_g TeC]  
      ID : 4 6-+(3@~O`!  
      Format : SSA )h?)DqKf  
      Codec ID : S_TEXT/SSA lo)/h qG]  
      Codec ID/Info : Sub Station Alpha c; Hs_b?N  
      Compression mode : Lossless 47ISv4&$  
電影截圖: Mp'D,?{`_  
C),8}NzCEm  
plBNh6^J  
B4Wm}d(.  
|_6aZ^^L  
z c|aFk'  
_!g4#z  
cQ9AFn  
vzmjy3.i  
3$H\RxI9  
_y0Z8:b#  
}N:pTYEzwk  
描述
快速回复

验证问题:
正确答案:珠海
按"Ctrl+Enter"直接提交