社区应用 最新帖子 精华区 社区服务 会员列表 统计排行
主题 : [MP4/1.7G] 鋼鐵俠3(英語中字) Iron Man 3
级别: 贵宾
显示用户信息 
0  发表于: 2013-05-26   

[MP4/1.7G] 鋼鐵俠3(英語中字) Iron Man 3

[原創SEED] [MP4/1.7G] 鋼鐵俠3(英語中字) Iron Man 3 iDOZ3Wg0m  
ej}gSe  
'%aQCF  
MIMG~8  
导演: 沙恩·布莱克 GinuO{n  
编剧: 沙恩·布莱克 / 德鲁·皮尔斯 / 斯坦·李 / 唐·赫克 / 拉里·利伯 / 杰克·科比 Ji *wr+FNv  
主演: 小罗伯特·唐尼 / 盖·皮尔斯 / 格温妮斯·帕特洛 / 本·金斯利 / 唐·钱德尔 / 保罗·贝坦尼 / 丽贝卡·豪尔 / 乔恩·费儒 / 威廉姆·赛德勒 / 詹姆斯·戴尔 / 伊芳·齐玛 / 泰·辛普金斯 / 阿什利·汉弥尔顿 / 王学圻 / 范冰冰 p=F8u0iqjf  
类型: 动作 / 科幻 gl`&bPGd;  
官方网站: www.marvel.com/ironman3 2!%(*.Z>T  
制片国家/地区: 美国 / 中国大陆 $b5z 4y[  
语言: 英语 ]MVcb`fi$  
上映日期: 2013-04-18(伦敦首映) / 2013-05-01(中国大陆) / 2013-05-03(美国) k$ kY/Jg-3  
片长: 134分钟(中国大陆) / 130分钟(美国) EXc>\R~7N  
又名: 铁甲奇侠3(港) / 钢铁人3(台) / 铁人3 rlY}FrG)  
IMDb链接: tt1300854 6MUO[tR  
官方小站:《钢铁侠3》 #2yn:sL  
钢铁侠3的剧情简介 · · · · · · IV+ L- h  
  自纽约事件以来,托尼·斯塔克(小罗伯特·唐尼 Robert Downey Jr. 饰)为前所未有的焦虑症所困扰。他疯狂投入钢铁侠升级版的研发,为此废寝忘食,甚至忽略了女友佩珀·波茨(格温妮斯·帕特洛 Gwyneth Paltrow 饰)的感受。与此同时,臭名昭著的恐怖头目曼达林(本·金斯利 Ben Kingsley 饰)制造了一连串的爆炸袭击事件,托尼当年最忠诚的保镖即在最近的一次袭击中身负重伤。未过多久,托尼、佩珀以及曾与他有过一面之缘的女植物学家玛雅(丽贝卡·豪尔 Rebecca Hall 饰)在家中遭到猛烈的炮火袭击,几乎丧命,而这一切似乎都与22年前那名偶然邂逅的科学家阿尔德里奇·基连(盖·皮尔斯 Guy Pearce 饰)及其终极生物的研究有关。 ^Ygmc2Hh  
  即使有精密先进的铠甲护身,也无法排遣发自心底的焦虑。被击碎一切的托尼,如何穿越来自地狱的熊熊烈火…… {"2XBWm9  
KO)BSd_t  
VaJ@$2[2  
aY"Sec3  
2?C=VRKT  
^u7KQX|d&  
JD~ SPE8x  
ByiL JG  
.E*QNTK.W  
F3HQ!C"k  
B>3ww=_  
u?7&!I:gQ^  
<n^L<Z+1,#  
?$.F>[2b  
VA+KfgNP  
@NC<T`d#Z  
级别: 贵宾
显示用户信息 
1  发表于: 2013-05-26   
[mkv/2.76GB] 鋼鐵人3 Iron Man 3 英语中字
$TC/br#7  
UJ` RU   
dI!#)-)  
Iron.Man.3.2013.720p.HDRip.ULTRA.EDiTiON.x264.AC3.LiNE-SmY.mkv [英語版完美音效] (,KGZQ@<  
^;`\{8:-  
影片原名︰Iron Man 3 hJy{B2E  
中文譯名︰鋼鐵俠3/鐵甲奇俠3(港)/鋼鐵人3(台) a|de -Y}  
出品公司︰MarvelStudios 0]nyb }3  
出品年代︰2013 年 YQC_2   
上映日期︰2013年5月3日 中國 f {!=$k`  
影片級別︰Sweden:11 | UK:12A |Ireland:12A | South Korea:12 | USA:PG-13 w=[ByB'   
IMDB鏈接︰http://www.imdb.com/title/tt1300854/ (w4R S/8U  
IMDB評分︰(awaiting 5votes) gIgDBy$T  
國  家︰美國/中國 =47-7,  
類  別︰動作/科幻/驚悚 `Ui-\1  
導  演︰沙恩·布萊克 ShaneBlack Qt9w e@*  
主  演︰小羅伯特·唐尼 Robert Downey Jr.  ....托尼·斯塔克/鋼鐵人 Tony Stark / IronMan {sRO]d|p  
     格溫妮絲·帕特洛 Gwyneth Paltrow  ....小辣椒 Pepper Potts CG#4 %$g  
     唐·錢德爾 DonCheadle  ....詹姆斯·羅迪/戰爭機器 James Rhodes / War Machine  $ @+LR  
     本·金斯利 BenKingsley  ....曼達林/滿大人 The Mandarin ;Vv.Otw*  
     蓋·皮爾斯 Guy Pearce  ....基裡安博士 AldrichKillian !_PBJ$&<Z  
     麗貝卡·豪爾 Rebecca Hall  ....瑪雅·漢森 Maya Hansen fN{:i  
     詹姆斯·貝吉·戴爾James Badge Dale  ....「冷血」艾瑞克·賽文 Eric Savin 5;o/%Fp  
     保羅·貝坦尼 PaulBettany  ....Jarvis (voice) -G-r-|[~  
     喬恩·費儒 Jon Favreau  ....HappyHogan 9FRy qL/  
     威廉姆·賽德勒 William Sadler  ....Sal Kennedy m[Z!Nl)g  
     斯坦·李 StanLee  ....Stan the Man (rumored) :8 ",D  
     王學圻 Xueqi Wang  ....ChenLu l<1Qym3 F  
     斯蒂芬妮·莎絲泰克 Stephanie Szostak "2 RcLsA  
     伊溫·茲瑪 Yvonne Zima  ....MissElkridge }rq=Wz$.  
     黛爾·迪奇 Dale Dickey  ....Mrs.Davis *,UX%I+[>  
內容簡介︰ %RYxDZB  
  在《鋼鐵人3》中,托尼·斯塔克將遭遇到一個能力似乎沒有界限的強敵的挑戰。這個人毀壞了斯塔克的生活,而斯塔克只有依靠著自己精良的高科技的裝備才能去尋找究竟是誰才是幕後的元兇。在尋找的過程中,斯塔克非常依賴自己的鋼鐵服,每一次轉折都在測試著他的勇氣。當他最終找到強敵,並且準備展開反戈一擊的時候,斯塔克頓時發現了自己一直以來都面對著一個巨大的問題:到底是戰甲成就了他,還是他造就了這套戰甲! uIKPGX  
YJ am;U=  
](kRGf0JP  
l>Q)f@?C-  
CODE: pl NC$F`  
zt7g,!OB  
I{9:b UX  
Format : Matroska { "mP[it  
      File size : 2.76 GiB > Wu>Ex*l  
      Duration : 2h 10mn ]=EN>3;1>  
      Overall bit rate : 3 043 Kbps /N@F^r!$S  
      Encoded date : UTC 2010-02-22 21:41:31 -CIV^XL9k  
      Writing application : mkvmerge v5.9.0 ('On The Loose') built on Dec  9 2012 15:37:01 #n.2[ ^++  
      Writing library : libebml v1.3.0 + libmatroska v1.4.0 )v| P@-m  
   Video #1 q.Q'[Tmx  
      ID : 1 {DUgssih  
      Format : AVC &iw|. ?(  
      Format/Info : Advanced Video Codec ~@Sm!+Pw$P  
      Format profile : High@L3.1 .jT>&;XpH  
      Format settings, CABAC : Yes mJ{n!Mt  
      Format settings, ReFrames : 4 frames |"9A}\(}  
      Muxing mode : Header stripping >?v9~L?w7  
      Codec ID : V_MPEG4/ISO/AVC <xOTWU  
      Duration : 2h 10mn f9<MLm(  
      Bit rate : 2,800 Kbps 4fPi:35s  
      Width : 1,280 pixels q& < pu!  
      Height : 520 pixels F]'0LR  
      Display aspect ratio : 2.462 }o8=y-? Qq  
      Frame rate : 29.970 fps F&V!C)  
      Color space : YUV `DIW4uz  
      Chroma subsampling : 4:2:0 ]F_/(% )9  
      Bit depth : 8 bits Z%q5wmg  
      Scan type : Progressive US-R`U <  
      Bits/(Pixel*Frame) : 0.140 v<BmG}7  
      Stream size : 2.53 GiB (92%) 2k3B2  
      Writing library : x264 core 116 r2074 2641b9e 4]^_CIIU+  
      Audio #2 FFrWRxe  
      ID : 2 !B(%DF>  
      Format : AC-3 N-[(u G  
      Format/Info : Audio Coding 3 md+hfN<*}  
      Mode extension : CM (complete main) Q-eq^sZ{  
      Muxing mode : Header stripping Dt=,h~B3Y  
      Codec ID : A_AC3 (+:$-eo#x  
      Duration : 2h 10mn ,OgxmgfWg  
      Bit rate mode : Constant hEbj~Xx%  
      Bit rate : 192 Kbps 6Z&pvvFg+J  
      Channel(s) : 2 channels N"#OM IV  
      Channel positions : Front: L R u0puMuW1  
      Sampling rate : 48.0 KHz 7~^6tS0'i  
      Bit depth : 16 bits kj`Vf\m=  
      Compression mode : Lossy W&;_UL  
      Stream size : 179 MiB (6%) J.%?$\:  
   Text #3 >` E DDJ  
      ID : 3 d=8  
      Format : SSA sRw?| WG  
      Codec ID : S_TEXT/SSA }uqC$4BX!  
      Codec ID/Info : Sub Station Alpha T/@8/ *%f  
      Compression mode : Lossless K<}6sm=  
   Text #4 ]J1-%tK/  
      ID : 4 `)g3ek ,}  
      Format : SSA 1vZ;jEtL  
      Codec ID : S_TEXT/SSA B(5IQ /LzR  
      Codec ID/Info : Sub Station Alpha oikAmu#l  
      Compression mode : Lossless \T\JFcKg_  
電影截圖: #%@q`,J=i  
2-n4?\  
Wy>y[\uzQ  
XLg%u DU  
*+X;!=O  
3=]Wjy60d  
}5cG+G'M+  
f St7   
!c:zRO7J[  
=kU]5z! h  
owQNT,  
k-@tT_V  
描述
快速回复

验证问题:
正确答案:珠海
按"Ctrl+Enter"直接提交