社区应用 最新帖子 精华区 社区服务 会员列表 统计排行
主题 : [MP4/1.7G] 鋼鐵俠3(英語中字) Iron Man 3
级别: 贵宾
显示用户信息 
0  发表于: 2013-05-26   

[MP4/1.7G] 鋼鐵俠3(英語中字) Iron Man 3

[原創SEED] [MP4/1.7G] 鋼鐵俠3(英語中字) Iron Man 3 NTlNI}DpP  
vlzSN( +  
i'"L1*"w  
.kh 9,,%  
导演: 沙恩·布莱克 ,TgZ*z|  
编剧: 沙恩·布莱克 / 德鲁·皮尔斯 / 斯坦·李 / 唐·赫克 / 拉里·利伯 / 杰克·科比 3FL Gn>*e  
主演: 小罗伯特·唐尼 / 盖·皮尔斯 / 格温妮斯·帕特洛 / 本·金斯利 / 唐·钱德尔 / 保罗·贝坦尼 / 丽贝卡·豪尔 / 乔恩·费儒 / 威廉姆·赛德勒 / 詹姆斯·戴尔 / 伊芳·齐玛 / 泰·辛普金斯 / 阿什利·汉弥尔顿 / 王学圻 / 范冰冰 jQP #X;F  
类型: 动作 / 科幻 }Cv!40M  
官方网站: www.marvel.com/ironman3 $sj|/FRm  
制片国家/地区: 美国 / 中国大陆  j8OBeI(  
语言: 英语 3)#'wKdn  
上映日期: 2013-04-18(伦敦首映) / 2013-05-01(中国大陆) / 2013-05-03(美国) -lO)DP  
片长: 134分钟(中国大陆) / 130分钟(美国) :a8Q`.)0n  
又名: 铁甲奇侠3(港) / 钢铁人3(台) / 铁人3 CzSGCCoQ  
IMDb链接: tt1300854 6P.RO1  
官方小站:《钢铁侠3》 S 8%'#im  
钢铁侠3的剧情简介 · · · · · · mqwue6B l  
  自纽约事件以来,托尼·斯塔克(小罗伯特·唐尼 Robert Downey Jr. 饰)为前所未有的焦虑症所困扰。他疯狂投入钢铁侠升级版的研发,为此废寝忘食,甚至忽略了女友佩珀·波茨(格温妮斯·帕特洛 Gwyneth Paltrow 饰)的感受。与此同时,臭名昭著的恐怖头目曼达林(本·金斯利 Ben Kingsley 饰)制造了一连串的爆炸袭击事件,托尼当年最忠诚的保镖即在最近的一次袭击中身负重伤。未过多久,托尼、佩珀以及曾与他有过一面之缘的女植物学家玛雅(丽贝卡·豪尔 Rebecca Hall 饰)在家中遭到猛烈的炮火袭击,几乎丧命,而这一切似乎都与22年前那名偶然邂逅的科学家阿尔德里奇·基连(盖·皮尔斯 Guy Pearce 饰)及其终极生物的研究有关。 /BgUS ]Y:  
  即使有精密先进的铠甲护身,也无法排遣发自心底的焦虑。被击碎一切的托尼,如何穿越来自地狱的熊熊烈火…… $UsLbU MY  
h kXFVDd  
Q=s?7ebFU  
?t!y)Axez  
QA - F)  
[s=QpNHep  
|5=E|YN|#  
[Z W   
/& dEp  
O7kc=Md"  
 ig*xY2;.  
b =^p  
^]L=@Th-  
]p%J |  
]Hh 7T:w  
PuK)q7*1  
级别: 贵宾
显示用户信息 
1  发表于: 2013-05-26   
[mkv/2.76GB] 鋼鐵人3 Iron Man 3 英语中字
ho+{,$c{=p  
mE!   
z={[<!G[l  
Iron.Man.3.2013.720p.HDRip.ULTRA.EDiTiON.x264.AC3.LiNE-SmY.mkv [英語版完美音效] WzYQs6An0  
}N^=  
影片原名︰Iron Man 3 {Jfd4H   
中文譯名︰鋼鐵俠3/鐵甲奇俠3(港)/鋼鐵人3(台) OtD_!_ClK(  
出品公司︰MarvelStudios  @ Yf6_EX  
出品年代︰2013 年 Wg!2 v t  
上映日期︰2013年5月3日 中國 X^LW[?dh#k  
影片級別︰Sweden:11 | UK:12A |Ireland:12A | South Korea:12 | USA:PG-13 $zXWQE,8  
IMDB鏈接︰http://www.imdb.com/title/tt1300854/ @E1[n5V  
IMDB評分︰(awaiting 5votes) ipS7xTUav  
國  家︰美國/中國 ejOw<o   
類  別︰動作/科幻/驚悚 Lg1>yN7  
導  演︰沙恩·布萊克 ShaneBlack XMV7X4J,  
主  演︰小羅伯特·唐尼 Robert Downey Jr.  ....托尼·斯塔克/鋼鐵人 Tony Stark / IronMan m j7 "B<  
     格溫妮絲·帕特洛 Gwyneth Paltrow  ....小辣椒 Pepper Potts G\< xrz  
     唐·錢德爾 DonCheadle  ....詹姆斯·羅迪/戰爭機器 James Rhodes / War Machine t\ OE*6u  
     本·金斯利 BenKingsley  ....曼達林/滿大人 The Mandarin ijIz 0'#  
     蓋·皮爾斯 Guy Pearce  ....基裡安博士 AldrichKillian *?]T^@ 63  
     麗貝卡·豪爾 Rebecca Hall  ....瑪雅·漢森 Maya Hansen PK oyu5  
     詹姆斯·貝吉·戴爾James Badge Dale  ....「冷血」艾瑞克·賽文 Eric Savin cO f<S1  
     保羅·貝坦尼 PaulBettany  ....Jarvis (voice) b:G X6g  
     喬恩·費儒 Jon Favreau  ....HappyHogan J scwZX  
     威廉姆·賽德勒 William Sadler  ....Sal Kennedy r@QN1g  
     斯坦·李 StanLee  ....Stan the Man (rumored) Ycbs !K?  
     王學圻 Xueqi Wang  ....ChenLu  9{xA +  
     斯蒂芬妮·莎絲泰克 Stephanie Szostak DwT !iddH  
     伊溫·茲瑪 Yvonne Zima  ....MissElkridge iq8_{Jq&  
     黛爾·迪奇 Dale Dickey  ....Mrs.Davis bs)A#EFI45  
內容簡介︰ qf\/siX1  
  在《鋼鐵人3》中,托尼·斯塔克將遭遇到一個能力似乎沒有界限的強敵的挑戰。這個人毀壞了斯塔克的生活,而斯塔克只有依靠著自己精良的高科技的裝備才能去尋找究竟是誰才是幕後的元兇。在尋找的過程中,斯塔克非常依賴自己的鋼鐵服,每一次轉折都在測試著他的勇氣。當他最終找到強敵,並且準備展開反戈一擊的時候,斯塔克頓時發現了自己一直以來都面對著一個巨大的問題:到底是戰甲成就了他,還是他造就了這套戰甲! I~>$H+=@  
jBSl4j  
/ Ub\`2,  
L1 9IM  
CODE: Sg#F_3v  
8|S6f,KH59  
y#|0Q>aX  
Format : Matroska '|]aDE#rZ  
      File size : 2.76 GiB !^]}_ h  
      Duration : 2h 10mn "%Gj&pj_  
      Overall bit rate : 3 043 Kbps Nrc sLoMy,  
      Encoded date : UTC 2010-02-22 21:41:31 #1]r ^&  
      Writing application : mkvmerge v5.9.0 ('On The Loose') built on Dec  9 2012 15:37:01 "NnEbi`w  
      Writing library : libebml v1.3.0 + libmatroska v1.4.0 =bP-{J  
   Video #1 mmNzT"\|  
      ID : 1 |crIB:A9  
      Format : AVC >)q[*]2*  
      Format/Info : Advanced Video Codec = LG5Rm1e%  
      Format profile : High@L3.1 xk:*7W@!  
      Format settings, CABAC : Yes x,]m:~a?h  
      Format settings, ReFrames : 4 frames {{b:W%5_  
      Muxing mode : Header stripping VS>2a:\  
      Codec ID : V_MPEG4/ISO/AVC 9lt^7[L9bP  
      Duration : 2h 10mn U_v()XKrBs  
      Bit rate : 2,800 Kbps ;]Xk9FZ'yp  
      Width : 1,280 pixels \ul|Zy/z4  
      Height : 520 pixels _l$Cps+K  
      Display aspect ratio : 2.462 Z F2y`#XS  
      Frame rate : 29.970 fps ^E~/t3  
      Color space : YUV <G H2yq  
      Chroma subsampling : 4:2:0 B{Idw<-  
      Bit depth : 8 bits b%6gaz  
      Scan type : Progressive iz?<G~.!V  
      Bits/(Pixel*Frame) : 0.140 Vje/#jxG@  
      Stream size : 2.53 GiB (92%) 7uXmmT 0  
      Writing library : x264 core 116 r2074 2641b9e X*% %'2j  
      Audio #2 '5TyD  
      ID : 2 (Dhl4`ZN;  
      Format : AC-3 GHk'[wOZd  
      Format/Info : Audio Coding 3 *9WhO_{V  
      Mode extension : CM (complete main) u(%p pi  
      Muxing mode : Header stripping BHE#GC  
      Codec ID : A_AC3 p:S`su"  
      Duration : 2h 10mn a?DYJCe  
      Bit rate mode : Constant `HSj*mwLy  
      Bit rate : 192 Kbps q8  @]  
      Channel(s) : 2 channels j(GcbF!|  
      Channel positions : Front: L R Ih{dd,x  
      Sampling rate : 48.0 KHz (2m;[g"]  
      Bit depth : 16 bits 5B{U ]H  
      Compression mode : Lossy %6}behP.F/  
      Stream size : 179 MiB (6%) _SI,U;e  
   Text #3 scIdJ<\r]  
      ID : 3 (N {(qdM{  
      Format : SSA scM s5=1  
      Codec ID : S_TEXT/SSA VvW,m8?up  
      Codec ID/Info : Sub Station Alpha tXHpP&X  
      Compression mode : Lossless )bale3  
   Text #4 R@HusS1  
      ID : 4 WbDwY=<=  
      Format : SSA %?f&Y<4BG  
      Codec ID : S_TEXT/SSA }mrd{Ec  
      Codec ID/Info : Sub Station Alpha `x s~Y$E  
      Compression mode : Lossless | 1 Qt  
電影截圖: ez hiZ,-  
6J1-D]t  
5`QDH}G=[L  
54\(  
1[QW1|7  
SIrnewQ  
;BH"pmq  
VZViW8W(Uc  
wd) ve:QFP  
T8ltvox  
W;hCtm$(  
|9uL\=xjXy  
描述
快速回复

验证问题:
正确答案:珠海
按"Ctrl+Enter"直接提交