社区应用 最新帖子 精华区 社区服务 会员列表 统计排行
主题 : [MP4/1.7G] 鋼鐵俠3(英語中字) Iron Man 3
级别: 贵宾
显示用户信息 
0  发表于: 2013-05-26   

[MP4/1.7G] 鋼鐵俠3(英語中字) Iron Man 3

[原創SEED] [MP4/1.7G] 鋼鐵俠3(英語中字) Iron Man 3 ~N)5~V6y  
lVjq./w'  
JBr5pk  
DZ\Vs-\C  
导演: 沙恩·布莱克 :~$5[b  
编剧: 沙恩·布莱克 / 德鲁·皮尔斯 / 斯坦·李 / 唐·赫克 / 拉里·利伯 / 杰克·科比 #7 3Mk8Q@  
主演: 小罗伯特·唐尼 / 盖·皮尔斯 / 格温妮斯·帕特洛 / 本·金斯利 / 唐·钱德尔 / 保罗·贝坦尼 / 丽贝卡·豪尔 / 乔恩·费儒 / 威廉姆·赛德勒 / 詹姆斯·戴尔 / 伊芳·齐玛 / 泰·辛普金斯 / 阿什利·汉弥尔顿 / 王学圻 / 范冰冰 5:i]RCvz  
类型: 动作 / 科幻 +OJ|9?  
官方网站: www.marvel.com/ironman3 P5Mx;=u;%  
制片国家/地区: 美国 / 中国大陆 L`T?S1w  
语言: 英语 /*)Yjs#'x=  
上映日期: 2013-04-18(伦敦首映) / 2013-05-01(中国大陆) / 2013-05-03(美国) T3,u1_  
片长: 134分钟(中国大陆) / 130分钟(美国) UFE^qjPW  
又名: 铁甲奇侠3(港) / 钢铁人3(台) / 铁人3 &kRGoU`$  
IMDb链接: tt1300854 mU  j%"4B  
官方小站:《钢铁侠3》 J]E$* _  
钢铁侠3的剧情简介 · · · · · · QNJ$J&`  
  自纽约事件以来,托尼·斯塔克(小罗伯特·唐尼 Robert Downey Jr. 饰)为前所未有的焦虑症所困扰。他疯狂投入钢铁侠升级版的研发,为此废寝忘食,甚至忽略了女友佩珀·波茨(格温妮斯·帕特洛 Gwyneth Paltrow 饰)的感受。与此同时,臭名昭著的恐怖头目曼达林(本·金斯利 Ben Kingsley 饰)制造了一连串的爆炸袭击事件,托尼当年最忠诚的保镖即在最近的一次袭击中身负重伤。未过多久,托尼、佩珀以及曾与他有过一面之缘的女植物学家玛雅(丽贝卡·豪尔 Rebecca Hall 饰)在家中遭到猛烈的炮火袭击,几乎丧命,而这一切似乎都与22年前那名偶然邂逅的科学家阿尔德里奇·基连(盖·皮尔斯 Guy Pearce 饰)及其终极生物的研究有关。 .VXFEbu.jq  
  即使有精密先进的铠甲护身,也无法排遣发自心底的焦虑。被击碎一切的托尼,如何穿越来自地狱的熊熊烈火…… ucDzDE[  
O6>B1HRN]  
,l2rf3K*pP  
kxG+N"|  
+Ru#mu9\U\  
>VCnpg>  
*lS/0;O4'  
-Zyf >Q  
=Z"YgmmI0  
x7 pUW9sj  
+K)#DJ  
\qajzk`  
7q8*hny;}  
x|j%o="  
}NOOpyI=@  
P<V%&7"GO  
级别: 贵宾
显示用户信息 
1  发表于: 2013-05-26   
[mkv/2.76GB] 鋼鐵人3 Iron Man 3 英语中字
rI:q  
777zhxj  
Woms|T63  
Iron.Man.3.2013.720p.HDRip.ULTRA.EDiTiON.x264.AC3.LiNE-SmY.mkv [英語版完美音效] >]rlCB`Q  
* ]nz\fzM  
影片原名︰Iron Man 3 !7| 6D,U  
中文譯名︰鋼鐵俠3/鐵甲奇俠3(港)/鋼鐵人3(台) hG~CB~~r  
出品公司︰MarvelStudios }r%k,KIJ  
出品年代︰2013 年 xkQjALSr/  
上映日期︰2013年5月3日 中國 ]1"XFN!  
影片級別︰Sweden:11 | UK:12A |Ireland:12A | South Korea:12 | USA:PG-13 !e^Va8b/  
IMDB鏈接︰http://www.imdb.com/title/tt1300854/ C'_vEV  
IMDB評分︰(awaiting 5votes) +&i013P<  
國  家︰美國/中國 ,dVDD3:  
類  別︰動作/科幻/驚悚 bv%vpe   
導  演︰沙恩·布萊克 ShaneBlack qm`4bQ4;Q  
主  演︰小羅伯特·唐尼 Robert Downey Jr.  ....托尼·斯塔克/鋼鐵人 Tony Stark / IronMan O%dn/4q  
     格溫妮絲·帕特洛 Gwyneth Paltrow  ....小辣椒 Pepper Potts - [+M]]U  
     唐·錢德爾 DonCheadle  ....詹姆斯·羅迪/戰爭機器 James Rhodes / War Machine /{50iIB  
     本·金斯利 BenKingsley  ....曼達林/滿大人 The Mandarin QMR0;P?F  
     蓋·皮爾斯 Guy Pearce  ....基裡安博士 AldrichKillian $x fKUUvv  
     麗貝卡·豪爾 Rebecca Hall  ....瑪雅·漢森 Maya Hansen ;$)S{S  
     詹姆斯·貝吉·戴爾James Badge Dale  ....「冷血」艾瑞克·賽文 Eric Savin u^Yy s6  
     保羅·貝坦尼 PaulBettany  ....Jarvis (voice) 't6z"B  
     喬恩·費儒 Jon Favreau  ....HappyHogan iOKSv!M1B  
     威廉姆·賽德勒 William Sadler  ....Sal Kennedy B,["S/ Z(  
     斯坦·李 StanLee  ....Stan the Man (rumored) SMh 'Oe  
     王學圻 Xueqi Wang  ....ChenLu k{["g.^#a  
     斯蒂芬妮·莎絲泰克 Stephanie Szostak S'C\'*RAH  
     伊溫·茲瑪 Yvonne Zima  ....MissElkridge Jiu!M43  
     黛爾·迪奇 Dale Dickey  ....Mrs.Davis -sJ5`Xt  
內容簡介︰ @2 QA5k$j  
  在《鋼鐵人3》中,托尼·斯塔克將遭遇到一個能力似乎沒有界限的強敵的挑戰。這個人毀壞了斯塔克的生活,而斯塔克只有依靠著自己精良的高科技的裝備才能去尋找究竟是誰才是幕後的元兇。在尋找的過程中,斯塔克非常依賴自己的鋼鐵服,每一次轉折都在測試著他的勇氣。當他最終找到強敵,並且準備展開反戈一擊的時候,斯塔克頓時發現了自己一直以來都面對著一個巨大的問題:到底是戰甲成就了他,還是他造就了這套戰甲! oCC,l!  
,M T  
ua4p5 zV  
/zTgu(BE;  
CODE: c}D9ka -U  
-tyHWQC  
C@dbVJb>s  
Format : Matroska !V<7z`Xca  
      File size : 2.76 GiB frbl9T]  
      Duration : 2h 10mn c^?s77.  
      Overall bit rate : 3 043 Kbps v=R;SaIhT,  
      Encoded date : UTC 2010-02-22 21:41:31 )7x| m  
      Writing application : mkvmerge v5.9.0 ('On The Loose') built on Dec  9 2012 15:37:01 -h@ Lrr  
      Writing library : libebml v1.3.0 + libmatroska v1.4.0 2!M/Zij  
   Video #1 r,lF.:  
      ID : 1 [1n;aWUU  
      Format : AVC lZ'7kg~F|  
      Format/Info : Advanced Video Codec UhHe9RB  
      Format profile : High@L3.1 $F7L]fh  
      Format settings, CABAC : Yes sN.'Zq\:<#  
      Format settings, ReFrames : 4 frames k|XnV22m-  
      Muxing mode : Header stripping ) $UX\Q !  
      Codec ID : V_MPEG4/ISO/AVC "/O1?u<r  
      Duration : 2h 10mn ):qSv//  
      Bit rate : 2,800 Kbps e{1842a  
      Width : 1,280 pixels h|2!`ee  
      Height : 520 pixels sv-.%Ex  
      Display aspect ratio : 2.462 2%4MF_CnL  
      Frame rate : 29.970 fps :BYGK8L)  
      Color space : YUV CHC(TO  
      Chroma subsampling : 4:2:0 S$dY o-;  
      Bit depth : 8 bits 9~:Y7CLv@  
      Scan type : Progressive m1 }7_IdwW  
      Bits/(Pixel*Frame) : 0.140 (} zu%Zq  
      Stream size : 2.53 GiB (92%) 4c/p*Yc0  
      Writing library : x264 core 116 r2074 2641b9e $d!kYyLX  
      Audio #2 `pf;MG/mD#  
      ID : 2 1A(K3Lo:  
      Format : AC-3 llVA,v2(9  
      Format/Info : Audio Coding 3 %Zh{ f  
      Mode extension : CM (complete main) oV2EX?,U  
      Muxing mode : Header stripping u !?=JP  
      Codec ID : A_AC3 }% V,ajTGr  
      Duration : 2h 10mn wNX64~y7  
      Bit rate mode : Constant $\KET,`o  
      Bit rate : 192 Kbps wlxyodr8LH  
      Channel(s) : 2 channels %0:V5AX@0  
      Channel positions : Front: L R 28e^'T   
      Sampling rate : 48.0 KHz .qw[,66V  
      Bit depth : 16 bits DucU+ o`  
      Compression mode : Lossy t7A{v@6s  
      Stream size : 179 MiB (6%) eD?hu(}`+i  
   Text #3 R|Nh7`=  
      ID : 3 $#/2+[E:VV  
      Format : SSA :cdWD o8C  
      Codec ID : S_TEXT/SSA &%BM#Ic4 m  
      Codec ID/Info : Sub Station Alpha 6)'V%z* t  
      Compression mode : Lossless LTV2)r>*  
   Text #4 [f_m}^I^$  
      ID : 4 =;X-R  
      Format : SSA GzIafz`"kq  
      Codec ID : S_TEXT/SSA x82PysF2  
      Codec ID/Info : Sub Station Alpha t%BZHRF  
      Compression mode : Lossless dVy!Vh~ S  
電影截圖: =X 8{w$.  
4>PDkl:  
,TR".|I/  
74*YXv X*  
Bu ;^OZ(P  
.K|rqk+t  
8z^\s4U2  
 ,<KQ_U  
myO{9aC  
;j?] c<  
>Fl%K\  
k)81f<Aw  
描述
快速回复

验证问题:
正确答案:珠海
按"Ctrl+Enter"直接提交