社区应用 最新帖子 精华区 社区服务 会员列表 统计排行
主题 : [MP4/1.7G] 鋼鐵俠3(英語中字) Iron Man 3
级别: 贵宾
显示用户信息 
0  发表于: 2013-05-26   

[MP4/1.7G] 鋼鐵俠3(英語中字) Iron Man 3

[原創SEED] [MP4/1.7G] 鋼鐵俠3(英語中字) Iron Man 3 k}b4p  
1xxmXeB  
QKPz KNH0  
'A#.;ptY.  
导演: 沙恩·布莱克 !fR)m+O  
编剧: 沙恩·布莱克 / 德鲁·皮尔斯 / 斯坦·李 / 唐·赫克 / 拉里·利伯 / 杰克·科比 @vM\zq#q  
主演: 小罗伯特·唐尼 / 盖·皮尔斯 / 格温妮斯·帕特洛 / 本·金斯利 / 唐·钱德尔 / 保罗·贝坦尼 / 丽贝卡·豪尔 / 乔恩·费儒 / 威廉姆·赛德勒 / 詹姆斯·戴尔 / 伊芳·齐玛 / 泰·辛普金斯 / 阿什利·汉弥尔顿 / 王学圻 / 范冰冰 CE';1cVR  
类型: 动作 / 科幻 ,HGt M2  
官方网站: www.marvel.com/ironman3 [A{c_nmz+  
制片国家/地区: 美国 / 中国大陆 /B$u}@N  
语言: 英语 ^rn"!$o!x  
上映日期: 2013-04-18(伦敦首映) / 2013-05-01(中国大陆) / 2013-05-03(美国) rlEet$'}1  
片长: 134分钟(中国大陆) / 130分钟(美国) sbO6hZPwq  
又名: 铁甲奇侠3(港) / 钢铁人3(台) / 铁人3 VR2h)G:M^  
IMDb链接: tt1300854 D$46]~_(N  
官方小站:《钢铁侠3》 <`bJM]D-/  
钢铁侠3的剧情简介 · · · · · · HWzy981  
  自纽约事件以来,托尼·斯塔克(小罗伯特·唐尼 Robert Downey Jr. 饰)为前所未有的焦虑症所困扰。他疯狂投入钢铁侠升级版的研发,为此废寝忘食,甚至忽略了女友佩珀·波茨(格温妮斯·帕特洛 Gwyneth Paltrow 饰)的感受。与此同时,臭名昭著的恐怖头目曼达林(本·金斯利 Ben Kingsley 饰)制造了一连串的爆炸袭击事件,托尼当年最忠诚的保镖即在最近的一次袭击中身负重伤。未过多久,托尼、佩珀以及曾与他有过一面之缘的女植物学家玛雅(丽贝卡·豪尔 Rebecca Hall 饰)在家中遭到猛烈的炮火袭击,几乎丧命,而这一切似乎都与22年前那名偶然邂逅的科学家阿尔德里奇·基连(盖·皮尔斯 Guy Pearce 饰)及其终极生物的研究有关。 Y9oN(\<1:  
  即使有精密先进的铠甲护身,也无法排遣发自心底的焦虑。被击碎一切的托尼,如何穿越来自地狱的熊熊烈火…… 1:[>\mmP  
v M0$ \.  
J%Rm<:#]  
+*3/yi  
H^0<5b\D"(  
EZ?I43  
cS0CUn]  
)/y^Bf  
`]#} E \  
C-M')]  
>:_K{,  
Ir2d:~  
D_UG`!(  
l%[QMZTZ/f  
1k^SXn<h  
@2\OHab`,  
级别: 贵宾
显示用户信息 
1  发表于: 2013-05-26   
[mkv/2.76GB] 鋼鐵人3 Iron Man 3 英语中字
G17X[9fP  
0o)^7m  
'=3K_X;D@  
Iron.Man.3.2013.720p.HDRip.ULTRA.EDiTiON.x264.AC3.LiNE-SmY.mkv [英語版完美音效] P8 /k|*}  
 1a(vH7  
影片原名︰Iron Man 3 $"!\Nwk9L  
中文譯名︰鋼鐵俠3/鐵甲奇俠3(港)/鋼鐵人3(台) 1{y* U@  
出品公司︰MarvelStudios ZoK( E1  
出品年代︰2013 年 >t*q+W  
上映日期︰2013年5月3日 中國 "LSu-}:  
影片級別︰Sweden:11 | UK:12A |Ireland:12A | South Korea:12 | USA:PG-13 l* d& {TW  
IMDB鏈接︰http://www.imdb.com/title/tt1300854/ i+n(B~z^  
IMDB評分︰(awaiting 5votes) ] CWg{&  
國  家︰美國/中國 ig$u222TZ  
類  別︰動作/科幻/驚悚 |0+~{jrb=  
導  演︰沙恩·布萊克 ShaneBlack 4}ZMIx$Fe  
主  演︰小羅伯特·唐尼 Robert Downey Jr.  ....托尼·斯塔克/鋼鐵人 Tony Stark / IronMan Iq7) E]8  
     格溫妮絲·帕特洛 Gwyneth Paltrow  ....小辣椒 Pepper Potts "<nV6Vu s  
     唐·錢德爾 DonCheadle  ....詹姆斯·羅迪/戰爭機器 James Rhodes / War Machine ! JkLvFo!  
     本·金斯利 BenKingsley  ....曼達林/滿大人 The Mandarin + 5d;vcB=I  
     蓋·皮爾斯 Guy Pearce  ....基裡安博士 AldrichKillian ?#p[:[iq  
     麗貝卡·豪爾 Rebecca Hall  ....瑪雅·漢森 Maya Hansen (8S~Q[ZNp.  
     詹姆斯·貝吉·戴爾James Badge Dale  ....「冷血」艾瑞克·賽文 Eric Savin \Ee7 N  
     保羅·貝坦尼 PaulBettany  ....Jarvis (voice) ,x\(dRa  
     喬恩·費儒 Jon Favreau  ....HappyHogan GyB'[w1  
     威廉姆·賽德勒 William Sadler  ....Sal Kennedy ShG$+QSN  
     斯坦·李 StanLee  ....Stan the Man (rumored) /MrcR3N%  
     王學圻 Xueqi Wang  ....ChenLu [dv47XI0E  
     斯蒂芬妮·莎絲泰克 Stephanie Szostak 'm)Yv  
     伊溫·茲瑪 Yvonne Zima  ....MissElkridge >qDw9,{qi*  
     黛爾·迪奇 Dale Dickey  ....Mrs.Davis /rd=+Kh  
內容簡介︰ 3E:d_ ]NM  
  在《鋼鐵人3》中,托尼·斯塔克將遭遇到一個能力似乎沒有界限的強敵的挑戰。這個人毀壞了斯塔克的生活,而斯塔克只有依靠著自己精良的高科技的裝備才能去尋找究竟是誰才是幕後的元兇。在尋找的過程中,斯塔克非常依賴自己的鋼鐵服,每一次轉折都在測試著他的勇氣。當他最終找到強敵,並且準備展開反戈一擊的時候,斯塔克頓時發現了自己一直以來都面對著一個巨大的問題:到底是戰甲成就了他,還是他造就了這套戰甲! ] Iv3L8  
y|h164M  
3 YIkl Ju  
4vyl :5)+$  
CODE: [!&%gv% [  
;TzR64bY?&  
a! $T*  
Format : Matroska > b)v+E~  
      File size : 2.76 GiB /yI!zW2  
      Duration : 2h 10mn #lm#Fn+  
      Overall bit rate : 3 043 Kbps %Z1U,q  
      Encoded date : UTC 2010-02-22 21:41:31 -Ak'WNwp  
      Writing application : mkvmerge v5.9.0 ('On The Loose') built on Dec  9 2012 15:37:01 9;^cxbc0  
      Writing library : libebml v1.3.0 + libmatroska v1.4.0 R I(IXO:7  
   Video #1 R`Q$"@  
      ID : 1 >i\gt  
      Format : AVC @`=v\la  
      Format/Info : Advanced Video Codec c ##|UW/  
      Format profile : High@L3.1 dH*l/8 *&  
      Format settings, CABAC : Yes {$ ^Z&$n  
      Format settings, ReFrames : 4 frames x!Q~P npp  
      Muxing mode : Header stripping bx\jhT  
      Codec ID : V_MPEG4/ISO/AVC m V"^VU{$  
      Duration : 2h 10mn 9^o[Wz=Y  
      Bit rate : 2,800 Kbps Td=XNxmB  
      Width : 1,280 pixels  y 4]TT  
      Height : 520 pixels RQ"2A>  
      Display aspect ratio : 2.462 Hm5Oi  
      Frame rate : 29.970 fps x+ cC?  
      Color space : YUV Cv5(Wc  
      Chroma subsampling : 4:2:0 ysq<TU  
      Bit depth : 8 bits Tmv%vK  
      Scan type : Progressive 00= NlqI  
      Bits/(Pixel*Frame) : 0.140 >EvZhijH  
      Stream size : 2.53 GiB (92%) o0z0f6Tk  
      Writing library : x264 core 116 r2074 2641b9e (5N}F%(:U  
      Audio #2 _RT*|'  
      ID : 2 %*XxohC }  
      Format : AC-3 os"3u) /  
      Format/Info : Audio Coding 3 W$`WJ*j&  
      Mode extension : CM (complete main) B1Ovd* T  
      Muxing mode : Header stripping EMqd&e>  
      Codec ID : A_AC3 1GedC'.vv  
      Duration : 2h 10mn |</(  
      Bit rate mode : Constant &:GV{jLl.  
      Bit rate : 192 Kbps *CcFqy8=  
      Channel(s) : 2 channels WK=v8OS  
      Channel positions : Front: L R 4in q]0T  
      Sampling rate : 48.0 KHz |1T[ *f  
      Bit depth : 16 bits ST}:6  
      Compression mode : Lossy DQ-'~|%w  
      Stream size : 179 MiB (6%) _p I. W  
   Text #3 :0{3U7  
      ID : 3 r;8tOEEB  
      Format : SSA &Qm:t D_  
      Codec ID : S_TEXT/SSA sH<g~3  
      Codec ID/Info : Sub Station Alpha kCbj(+ 8  
      Compression mode : Lossless _XmW$  
   Text #4 FSMa{j6of  
      ID : 4 X*;+"ls  
      Format : SSA #(l*s\g  
      Codec ID : S_TEXT/SSA wL0D{S  
      Codec ID/Info : Sub Station Alpha 90R n0  
      Compression mode : Lossless $J23~:9  
電影截圖: +G:"ZO=E  
N|Tu{a  
y1I-/-o  
8w 0^:N|  
4 Z73{V  
D*,EQW#_  
}+<'~G ,  
[P}d9K  
;1CMJlfy;T  
17S/!>  
$IXcGQm#  
P\vZ23  
描述
快速回复

验证问题:
正确答案:珠海
按"Ctrl+Enter"直接提交